Buckethead Pike 65

0 % Extraction speed 6. Buckethead Pikes Collection 01: Description: Buckethead Brian Patrick Carroll (born May 13, 1969), better known by his stage name Buckethead, is a guitarist and multi instrumentalist who has worked within several genres of music. MP3 is a digital audio format without digital rights management (DRM) technology. Tablature file Buckethead - Pike 65 opens by means of the Guitar PRO program. Pike 65 "Hold Me Forever (In memory of my mom Nancy York Carroll)" Click here to purchase digital download. Buy Buckethead Pike 63 - Grand Gallery Mp3 Download. More images. er 14:58*Released on June 25, 2014Buy. Discover more music, concerts, videos, and pictures with the largest catalogue online at Last. Buckethead Artist Overview Albums. 65 FREE shipping Add to Favorites Previous page Next page Previous page Current page 1 Page 2 2 Page 3. Entire Pikes discography available for $198. 【电吉他】翻弹及教学 Buckethead Pike 65 - Er (by Wil) defaultlinn. by Buckethead. Pike 65 - Hold me forever (in memory of my mom Nancy York Carroll) (June 25, 2014) OVERALL. This page contains detailed performer credits and artist credits (line-up and band members), songs and tracks list, reviews, information and album cover graphic picture or DVD cover graphic or picture. About File Formats. Pike 65 - Hold Me Forever (In Memory Of My Mom Nancy York Carroll) is a alternative metal music album recording by BUCKETHEAD released in 2014 on CD, LP/Vinyl and/or cassette. He has released 69 studio albums, four special releases and one EP. by Buckethead. Buckethead - The Complete Pike Series. Pikes are on sale for $2 each in the Download Store. Believe me when I say it's a celebration of life like no other, the Bucketed One's ultimate loving tribute to his deceased mother, and in a sense, an ode to motherhood in general. Il s'agit encore une fois d'une version limitée. Бесплатное прослушивание музыки на Музыка Mail. !sr Buckethead - Pike #65 - Hold Me Forever. 1 % Track quality 100. Genres: Experimental Rock, Progressive Rock, Progressive Metal. 1k members in the Buckethead community. He has also performed on more than 50 other albums by other artists. Buckethead discography and songs: Music profile for Buckethead, born 13 May 1969. As mentioned numerous times before ‘Hold me Forever’ is one of the greatest compositions Buckethead has ever done and one of the greatest guitar pieces ever recorded. Buckethead - Pike 65: Hold Me Forever (In memory of my mom Nancy York Carroll) 28 lipca, 2015 @ 6:47 pm ( Buckethead ) Tags: buckethead , instrumental guitar , pikes series. Welcome to Bucketheadland. This page includes BUCKETHEAD Pike 71 - Celery's : cover picture, songs / tracks list, members/musicians and line-up, different releases details, buy online: ebay and amazon, ratings and detailled reviews by some experts, collaborators and members. considered by many to be the best pike up to date, this is without any doubt a powerful composition of raw emotion. 音轨:Electric Guitar-失真音效吉他,Electric Guitar-失真音效吉他,Clean Guitar-清音电吉他,Electric Bass-指拨电贝司,Cabasa-沙锤,Drumkit-敲击乐器. I would rank it next to pike 65, if that helps show. This That And The Other. Signed edition $25 limited cds 1. At 4/22/21 09:17 PM, MuramasasEdge wrote: I've been digging Sigil lately. Album Review: Buckethead- Pike 65 Hold Me Forever (In memory of my mom Nancy York Carroll) Buckethead. 2 (Coop Erstown – Pike 253) Next, some blistering 8 finger nubs from Pike 253, its Coop Erstown. Geek Favorites Guitar Videos. Buckethead pikes download Buckethead pikes download. Sale ends May 1st. Buckethead all, Official, Tabs, Pro, Power, Bass Tabs, Ukulele Chords tabs including big sur moon, all in the waiting, animal behaviour, asylum of glass, binge and grab Pike 65. Pike 154 - The Cellar. Everything about this song is fantastic. Track 2 - 4:16 3. Browse 703 lyrics and 132 Buckethead albums. This page contains detailed performer credits and artist credits (line-up and band members), songs and tracks list, reviews, information and album cover graphic picture or DVD cover graphic or picture. 0 % Extraction speed 3. Michael Jackson Tribute. Best decision I ever made was “legitimately obtaining” the Buckethead WAD instead of the basic midi version. Signed Edition will include a signature on a blank CD sleeve and numbered CDR. Pike 144 - Scream Sundae 36. 艺人: Buckethead 专辑: Pike 65 吉他谱: 103 求谱: 3 拨片: 85 发 谱 求 谱 Lirtson Nostril 艺人: Buckethead 专辑: Monument Valley 吉他谱: 0 求谱: 4 拨片: 80 发 谱 求 谱. About File Formats. Series: Pikes - 65. Бесплатное прослушивание музыки на Музыка Mail. Amazing pike one of my favorite rip Nancy carrol jzbolvan. Buckethead's tributes to his parents are always great, but this one stands out as one of his best. Buckethead — Pike 62 - Outlined For Citacis. Slaughterhouse on the Prairie 37. BUCKETHEAD - PIKE 65 - HOLD ME FOREVER (IN MEMORY OF MY MOM NANCY YORK CARROLL) 24th album out of 60 in 2014 and 95th overall All sounds brought to you by Buckethead and all instrumental This one has 6 tracks that clock in at 28:37 This is obvious by title that it's a tribute to BUCKETHEAD's mom, Nancy Carroll and while i was expecting a tear jerking parade of instrumental covers of Celine. er 14:58*Released on June 25, 2014Buy. Pike 65 - Hold Me Forever (In Memory of My Mom Nancy York Carroll) by Buckethead (Album, Progressive Rock): Reviews, Ratings, Credits, Song list - Rate Your Music Pike 65 - Hold Me Forever (In Memory of My Mom Nancy York Carroll). Buckethead混合拨弦教学 Licks in 'Er' from Pike 65, Hold Me Forever。听TED演讲,看国内、国际名校好课,就在网易公开课. wav Peak level 78. Hey, at least this isn’t 4chan. Buckethead Pike 65 - Hold Me Forever (In memory of my mom Nancy York Carroll) Buy this album, for support of Buckethead ! 25 views. One accurate tab per song. Another example of Buckethead's range. Pike 65 - Hold Me Forever (In Memory of My Mom Nancy York Carroll) 2014. He received critical acclaim for his innovative electric guitar playing. Pike 18 - More mellow Buckethead. Pikes are on sale for $2 each in the Download Store. To make it easy for you, we. Pike 65 - Hold Me Forever (In Memory of My Mom Nancy York Carroll) by Buckethead (Album, Progressive Rock): Reviews, Ratings, Credits, Song list - Rate Your Music Pike 65 - Hold Me Forever (In Memory of My Mom Nancy York Carroll). Snap, tough, & flex cases created by independent artists. Slaughterhouse on the Prairie 37. This album contains two long songs that are both big, involved and relaxing guitar solos. Limited to 300 copies. Unique Buckethead designs on hard and soft cases and covers for iPhone 12, SE, 11, iPhone XS, iPhone X, iPhone 8, & more. Many regard that album as Buckethead's best Pike, and rightfully so, as that album truly is wonderful in every sense of the word. Recommended by The Wall Street Journal. My top Pikes would probably have to be Look Up There ( Pike 5), Claymation Courtyard ( Pike 51), Hold Me Forever (In memory of my mom Nancy York Carroll) ( Pike 65), Leave the Light On ( Pike 66), Northern Lights ( Pike 95), Project Little Man ( Pike 104), Shaded Ray ( Pike 121), Buildor ( Pike 224), and Bozo. Track 4 - 20:03 5. Buckethead Pike 65 - Hold Me Forever (In memory of my mom Nancy York Carroll) Buy this album, for support of Buckethead ! 25 views. (65) 2006 (57) 2005 (27) 2004 (35) 2003 (9) (Pike 101) 54: 19: Fourneau Cosmique (Pike. In my opinion, this is the weakest of those three by a massive margin. Buckethead Pike 65 - Hold Me Forever (In memory of my mom Nancy York Carroll) Buckethead - Soothsayer Buckethead - One of the best, most emotional versions of Soothsayer Live Gothic 9 - 28 - 2012. Buy Digital Discography $195. Pike 291 Preview. NOTICE TO ALL EMPLOYEES PROVlDING COVERED SERVICES FOR MIAMI-DADE COUNTY ON COUNTY. Filename F:\Buckethead - The Day Of The Robot [1996 - FLAC]\02 - Flying Guillotine. bucketheadpikes. "I was eating it, and I put the mask on and then the bucket on my head. (65) 2006 (57) 2005 (27) 2004 (35) 2003 (9) (Pike 101) 54: 19: Fourneau Cosmique (Pike. Buckethead continued to release albums throughout the year, breaking the numerical order occasionally (for example, Pike 34 Pikes was released three weeks after Pike 35 Thank you Ohlinger's). 0 % Extraction speed 3. I wasn't expecting this one to be as heavy as it was, considering these types of albums tend to be on the soft side. Questa DeRecensione di Buckethead Pike 65 - Hold Me Forever (In memory of my mom Nancy York Carroll) è distribuita da DeBaser con Licenza Creative Commons Attribuzione - Non commerciale - Condividi allo stesso modo 4. As much as I dig Buckethead's Pike 51 - Claymation Courtyard, I find Pike 65 - Hold Me Forever (In Memory Of My Mom Nancy York Carroll) tops it by a longshot. 20 shipping. Buy Mp3 Music Online / Buckethead / Pike 62 - Outlined For Citacis. com/pike_65. The divine buckethead, cannot thank you enough. Materializing the Disembodied. Release info. Welcome to Bucketheadland. Last track is a 13 minute techical Buckethead's "hard rock feelin'" guitar solo, which sounds superior for me. Buckethead discography and songs: Music profile for Buckethead, born 13 May 1969. Consists of six tracks that clock in at 28:28. See which songs from which albums Buckethead played through the years. He has released 264 studio albums, four special releases and one EP. When I thought I finally found all the best pikes, I find another gem. 16 - Ardmore Music Hall - 4K - Full Set Chris Cafiero, 27/09/2016 Buckethead - Padmasana Fawaz Alhamadi, 24/10/2008. Buckethead - Young Buckethead, Vol. Sessantaduesimo disco appartenente alla serie "Buckethead Pikes", si tratta del prequel di Citacis, pubblicato otto giorni prima. 【电吉他】翻弹及教学 Buckethead Pike 65 - Er (by Wil) defaultlinn. Pike 65的吉他谱(gtp谱,总谱)在线查看,下载及讨论. '" His full length albums are just as varied. Citacis 63 – 2:23; Citacis 64 – 2:37; Citacis 65 – 3:08. From United States. Buckethead is an American musician, predominantly a guitarist. Buckethead Tabs with free online tab player. Who Are They Mourning?13,377. Sono da aggiungere inoltre cinque album in studio e una raccolta pubblicati attraverso il nome d'arte Death. : Buckethead - reddit. A Beginner's Guide To Buckethead. Genres: Experimental Rock, Progressive Rock, Progressive Metal. Click Here for Pikes 101 to 200. Believe me when I say it's a celebration of life like no other, the Bucketed One's ultimate loving tribute to his deceased mother, and in a sense, an ode to motherhood in general. Guns N' Roses with Buckethead - Welcome To The Jungle. Welcome to Bucketheadland. siLLy puPPy BUCKETHEAD - PIKE 65 - HOLD ME FOREVER (IN MEMORY OF MY MOM NANCY YORK CARROLL) 24th album out of 60 in 2014 and 95th overall All sounds brought to you by Buckethead and all instrumental This one has 6 tracks that clock in at 28:37 This is obvious by title that it’s a tribute to BUCKETHEAD’s mom, Nancy Carroll and while i was expecting a tear jerking parade of instrumental covers of Celine Dion songs, i’m surprised that this is more energetic and upbeat. Version V5 is the newest version in terms of mixing & mastering processing. COUPON (5 days ago) Weld Metals Online was created for Welders, Fabricators, and Artists as a trusted source for welding practice coupons, weldable kits, and welding consumables. BUCKETHEAD - PIKE 65 - HOLD ME FOREVER (IN MEMORY OF MY MOM NANCY YORK CARROLL) 24th album out of 60 in 2014 and 95th overall All sounds brought to you by Buckethead and all instrumental This one has 6 tracks that clock in at 28:37 This is obvious by title that it's a tribute to BUCKETHEAD's mom, Nancy Carroll and while i was expecting a tear jerking parade of instrumental covers of Celine. Buckethead Tabs with free online tab player. Entire Pikes discography available for $198. Chicken Bin Albums. Discount: -20%; Release date: 2014; Duration: 29:51; Size, Mb: 70. Like all PIKEs, all instrumental with everything played by chicken dude. 2 (Coop Erstown – Pike 253) Next, some blistering 8 finger nubs from Pike 253, its Coop Erstown. Pikes Series\2011 - Pike 01 - It's Alive\05. Buckethead - Electric Sea [New CD] £12. bUcKeThEaD Pike 241 Record Sparks In The Dark. Pike 144 - Scream Sundae 36. Track 6 - 31:46. Digital Music. Ended (09-09, 01:34 p. Still it was a nice surprise as. 9, Living Wage for County Service Contracts. Condition is Brand New. Buckethead ist der Künstlername des US-amerikanischen Gitarristen Brian Patrick Carroll (* 13. L'album è stato inoltre pubblicato in contemporanea a Grand Gallery, sessantatreesimo disco della serie. Hold Me Forever (In memory of my mom Nancy York Carroll) by Bucketheadland, released 25 June 2014 1. considered by many to be the best pike up to date, this is without any doubt a powerful composition of raw emotion. 17 + AU $26. 1 % Track quality 100. Find the Countries of Europe - No Outlines Minefield10,216. atari2600, zbridier. At 4/22/21 09:17 PM, MuramasasEdge wrote: I've been digging Sigil lately. Copy #!sr Buckethead - Poseidon. atmosphere: 8,0. Gutiar Pro Tab "Pike 65" from Buckethead band is free to download. [Full Album] Buckethead - Flesh for the Beast [2003] - Original Soundtrack. He has released 264 studio albums, four special releases and one EP. Was this info helpful?. En el 2015 Buckethead aumenta la velocidad en el lanzamiento de discos. 3 (Last House on Slunk Street – Pike 174) Next up, if you ever want your earlobes gloriously penetrated, then you should visit the Last House on Slunk Street. Guns N' Roses with Buckethead - Welcome To The Jungle. Not just best tributes, but one of his best albums period. Bucketheadland* - Hold Me Forever (In Memory Of My Mom Nancy York Carroll) Label: Not On Label (Buckethead Self-released) - 65sd. Pike 18 - More mellow Buckethead. About File Formats. Every Side. "I was eating it, and I put the mask on and then the bucket on my head. Il s'agit encore une fois d'une version limitée. Listen free to Buckethead - Pike #65: Hold Me Forever. bUckEtHeAd Vinyl Record Pike 47 Roller Coaster Repair. Pelican Exhaust Pipe Wipes. Pike 65's final solo section managed to be one of the most captivating and brilliant solos I've ever had the honor of hearing, whereas this one overstays its welcome. El 26 de junio es publicado el Pike 65 titulado "Hold Me Forever" (In memory of my mom Nancy Carroll York) en honor a la muerte de la madre de Buckethead. Pike 65 - Hold Me Forever (In Memory Of My Mom Nancy York Carroll) is a alternative metal music album recording by BUCKETHEAD released in 2014 on CD, LP/Vinyl and/or cassette. Add to Favorites Buckethead Guitarist Poster- Digital Art - Home Decor - Wall Art - Frame NOT included $ 18. Pike 65 - Hold Me Forever: Wow. Chicken Bin Albums. (65) 2006 (57) 2005 (27) 2004 (35) 2003 (9) (Pike 101) 54: 19: Fourneau Cosmique (Pike. Pike 62 についての ホラーM の投稿. 0 % Extraction speed 3. Needle in a Slunk Stack 42. 老外翻弹桶哥的C,以及教学'C'—Buckethead's Pike 65, 'Hold Me Forever' (Cover by Wil) 桶哥柔情现场Buckethead-The Interworld and the New. At 4/22/21 09:17 PM, MuramasasEdge wrote: I've been digging Sigil lately. He received critical acclaim for his innovative electric guitar playing. However, many forget to mention Pike 66, the third in a trilogy of awesomeness delivered by the bucketed one. Tuning: Eb Ab Db Gb Bb Eb. Guitar tabs for Hold Me Forever by Buckethead. Buckethead Interview - Coming Alive Podcast (2017) Buckethead - One of the best, most emotional versions of Soothsayer Live @ Gothic 9-28-2012. One accurate version. Pikes are on sale for $2 each in the Download Store. Slaughterhouse on the Prairie 37. Net: la mejor musica online gratis de Rock. County Code §2-8. Скачать видео в mp4 - 720p или 360p. jzbolvan This album is why I haven't left my guitar. I've run out of adjectives to describe buckethead albums, but this ones real good. As much as I dig Buckethead's Pike 51 - Claymation Courtyard, I find Pike 65 - Hold Me Forever (In Memory Of My Mom Nancy York Carroll) tops it by a longshot. Shipped with USPS Media Mail. Pike 65 - Hold Me Forever (In memory of my mom Nancy York Carroll) Close. Pike 193 - 14 Days til Halloween: Voice from the Dead Forest 43. Series: Pikes - 65. 8 % Track quality 100. 56 shipping. List of the best Buckethead albums, including pictures of the album covers when available. This program is available to downloading on our site. Brian Patrick Carroll (born May 13, 1969), known professionally as Buckethead, is an American guitarist and multi-instrumentalist who has worked within many genres of music. Discount: -20%; Pike 249 - The Moss. aeboyles It clearly conveys the deep emotion and love that BH had for his mother and it touches me on the same emotional level. Además cuenta con aportes a variados artistas con lo que suma más de 300 proyectos relacionados con Buckethead. Fourneau Cosmique. Condition is Brand New. Pike 276 "Healing Inside Outside Every Side". Buckethead - Pike 11 (2013) bluesever. Learn "Pike 65" faster with Songsterr Plus plan! Buckethead - Distortion Guitar Track difficulty (Rhythm) 100% ? d# A# F# C# G# D# P. 1547 播放 · 2 弹幕. 8 % Track quality 100. Track 2 - 4:16 3. 0 % Test CRC B940FB89 Copy CRC B940FB89 Copy OK Track 3 Filename F:\Buckethead - The Day Of The Robot [1996 - FLAC]\03 - Quantum Crash. Griffin's Spike **** (4) 2. RARE Music !. Turn on fullscreen mode (Alt + Enter) Learn "Pike 65" faster with Songsterr Plus plan!. Past releases dedicated to his parents have landed on the softer side of the musical spectrum, but with Hold Me Forever, he says his goodbyes with a powerful, widescreen ballad. Pike 65 - Hold Me Forever (In memory of my mom Nancy York Carroll). About File Formats. This is the Pike's sole flaw, and it results in a rather weak ending that damages the album's structural integrity during the last half. 0 % Test CRC D402C5D0 Copy CRC D402C5D0 Copy OK. La discografía del guitarrista Buckethead cuenta con 273 álbumes de solista, 3 DVD, un lanzamiento especial de 13 álbumes. Hey, at least this isn't 4chan. Many regard that album as Buckethead's best Pike, and rightfully so, as that album truly is wonderful in every sense of the word. Every Side. Pike 77 - Bumbyride Dreamlands 39. BUCKETHEAD released FROM THE COOP, in 2008. bUCkEtHeAd Shadows Between The. Get the Buckethead Setlist of the concert at The Vogue, Indianapolis, IN, USA on April 27, 2018 from the 2018 North American Tour and other Buckethead Setlists for free on setlist. He has released 69 studio albums, four special releases and one EP. 131 2 Pike 276 - Healing Inside Outside Every Side. 21,179 views, added to favorites 200 times. Griffin's Spike **** (4) 2. 0 Internazionale. 8 % Track quality 100. Snap, tough, & flex cases created by independent artists. Guns N' Roses with Buckethead - Welcome To The Jungle. Hey, at least this isn’t 4chan. This Buckethead discography is ranked from best to worst, so the top Buckethead albums can be found at the top of the list. Brian Patrick Carroll (born May 13, 1969), known professionally as Buckethead, is an American guitarist and multi-instrumentalist who has worked within many genres of music. Here's some outrageous Buckethead tapping. Condition is New. The Cuckoo Clocks of Hell. 1 Riff 1/Part N Starts =160 9 11 11 9 11 13 9 11 4 4 2 11 9 11 13 7 9 8 P. Out of Print. Sono da aggiungere inoltre cinque album in studio e una raccolta pubblicati attraverso il nome d'arte Death. One accurate tab per song. 1 month ago 00:05:40 2. Whether you're a seasoned pro or just starting out, Weld Metals Online has all the funs stuff you need without the boring stuff (like cutting and prepping metal). Buckethead continued to release albums throughout the year, breaking the numerical order occasionally (for example, Pike 34 Pikes was released three weeks after Pike 35 Thank you Ohlinger's). BUCKETHEAD released FROM THE COOP, in 2008. Pike 65 - Hold Me Forever (In Memory of My Mom Nancy York Carroll) by Buckethead (Album, Progressive Rock): Reviews, Ratings, Credits, Song list - Rate Your Music Pike 65 - Hold Me Forever (In Memory of My Mom Nancy York Carroll). Find Buckethead gifts and merchandise printed on quality products that are produced one at a time in socially responsible ways. Musiche di Buckethead. Buckethead Pikes Collection 01: Description: Buckethead Brian Patrick Carroll (born May 13, 1969), better known by his stage name Buckethead, is a guitarist and multi instrumentalist who has worked within several genres of music. More to explore: Buckethead Vinyl Records, Buckethead Music CDs, Buckethead. So, what's your rating for Pike 3? To work out what percentage you'd give the album, rate each song out of 5 stars, add up your total and divide it by the total score possible, which for Pike 3 is 65. Скачать видео Guns N' Roses with Buckethead - Welcome To The Jungle на пк и телефон в хорошем качестве. Buckethead. Add to Favorites Buckethead Guitarist Poster- Digital Art - Home Decor - Wall Art - Frame NOT included $ 18. : Buckethead - reddit. : Buckethead - reddit. An accomplished multi-instrumentalist best known for his virtuosic command of the electric guitar, Buckethead is one of the instrument's most recognizable contemporary innovators, his rapid-fire riffing. Author periah [a] 154. Flat Metal Coupons - Weld Metals Online. The following is a discography of works by Buckethead, which currently consists of 315 studio albums (including 284 in the Pike Series), 1 live album, 4 special releases, 1 extended play, 5 demo tapes, 3 solo DVD video releases, 2 DVD video releases with Cornbugs, 3 music videos, 3 unreleased albums, 3 solo videography releases. Buy it now - buckethead pike 29 limited Add to Watch list. This program is available to downloading on our site. See more ideas about concert posters, poster, music poster. Buckethead Tabs with free online tab player. 275 aus der Buckethead Pike Serie), einem Livealbum, vier Spezialveröffentlichungen, eine EP, fünf Demo Tapes, vier Solo DVD, zwei Videoalben mit Cornbugs, vier Musikvideos und. The following is a discography of works by Buckethead, which currently consists of 306 studio albums (including 275 in the Pike Series), 1 live album, 4 special releases, 1 extended play, 5 demo tapes, 3 solo DVD video releases, 2 DVD video releases with Cornbugs, 3 music videos, 3 unreleased albums, 3 solo videography releases. Buckethead - Todos los derechos reservados. Buckethead lost both of his parents over the span of one year between 2013 and 2014. 老外翻弹桶哥的C,以及教学'C'—Buckethead's Pike 65, 'Hold Me Forever' (Cover by Wil) 桶哥柔情现场Buckethead-The Interworld and the New Innocence Sep 26, 2017. wav Peak level 83. Pike 144 - Scream Sundae 36. Pike 65 contains one 30-minute track split onto 6 smaller tracks, which can be normally listened not together. Buckethead Pike 65 - Hold Me Forever (In memory of my mom Nancy York Carroll) Zoran Lozanoski, 27/06/2014 Buckethead - 09. [Full Album] Buckethead - Flesh for the Beast [2003] - Original Soundtrack. Buckethead has one of the biggest discographies in music. It's Alive (Pike 1) 56: 17: Decoding the Tomb of Bansheebot: 55: 18: In the Hollow Hills (Pike 101) 54: 19: Fourneau Cosmique (Pike 274) 52: 20: Northern Lights (Pike 95) 49: 21: 3 Foot Clearance (Pike 3) 48: 22: Enter the Chicken: 47: 23: Coupon (Pike 234) 16: 24: Kaleidoscalp: 15: 25: Herbie Climbs a Tree (Pike 156) 14: 26: A Real Diamond. Amazing pike one of my favorite rip Nancy carrol jzbolvan. Seller 100% positive. Le 27 juin 2013, le 18 e volume de la série Buckethead Pikes est offert en ligne [65]. Buckethead - All rights reserved. Il s'agit encore une fois d'une version limitée. Pike 65 - Hold Me Forever (In Memory of My Mom Nancy York Carroll) 2014. Buckethead - Pike 65 guitar pro tab with free online tab player, speed control and loop. 56 shipping. atmosphere: 8,0. Pike 291 Preview. COUPON (5 days ago) Weld Metals Online was created for Welders, Fabricators, and Artists as a trusted source for welding practice coupons, weldable kits, and welding consumables. Buy Buckethead Pike 13 Mp3 Download. er *Released on J. LP • Buckethead & Viggo Mortensen. This Pike tends to be overlooked, especially when taking into account the magnitude of Pike 65. Pike 65 - Hold Me Forever (In Memory of My Mom Nancy York Carroll) 38. heaviness: 8,0. 0 % Test CRC B940FB89 Copy CRC B940FB89 Copy OK Track 3 Filename F:\Buckethead - The Day Of The Robot [1996 - FLAC]\03 - Quantum Crash. He has released 69 studio albums, four special releases and one EP. Además cuenta con aportes a variados artistas con lo que suma más de 300 proyectos relacionados con Buckethead. Pike 291 Preview. This program is available to downloading on our site. Find the best version for your choice. LP • Buckethead & Viggo Mortensen. Buy & Download Cheap Mp3 Music Online. Слушать онлайн Pike 65 - Hold Me Forever (In memory of my mom Nancy York Carroll) - Buckethead. Questa DeRecensione di Buckethead Pike 65 - Hold Me Forever (In memory of my mom Nancy York Carroll) è distribuita da DeBaser con Licenza Creative Commons Attribuzione - Non commerciale - Condividi allo stesso modo 4. The following is a of works by Buckethead, which currently consists of 305 (including 274 in the Pike Series), 1 live album, 4 special releases, 1, 5 demo tapes, 3 solo DVD video releases, 2 DVD video releases with, 3 music videos, 3 unreleased albums, 3 solo videography releases, and 16 videography releases with other artists. Buckethead download high quality complete mp3 albums. Bucketheadland 10 31 by Bucketheadland, released 30 October 2018 1. mp3 by Steve from desktop or your mobile device. Listen free to Buckethead - Pike #65: Hold Me Forever. 56 shipping. Then times it by 100. MP3 is a digital audio format without digital rights management (DRM) technology. Effective October 1, 2020 to September 30, 2021. Pike 65 - A call for help. Discount: -20%; Release date: 2017; Duration: 28:30; Size, Mb: 65. Buckethead's 3 Foot Clearance is a Happy Holiday. e:\Music\Buckethead\02. Buckethead is a Phenomenal Musician. Format: CDr, Album, Limited Edition, Numbered, Signed. atari2600, zbridier. com/pike_65. Sono da aggiungere inoltre cinque album in studio e una raccolta pubblicati attraverso il nome d'arte Death. Buckethead is an American musician, predominantly a guitarist. Terms and Conditions. Buckethead - Pike 65 guitar pro tab with free online tab player, speed control and loop. 95 shipping. Diese Diskografie besteht aus allen Werken von Buckethead, einem US-amerikanischen Musiker der hauptsächlich als Gitarrist tätig ist. MP3 is a digital audio format without digital rights management (DRM) technology. Chicken Bin albums on sale for $3 each. Pike 77 - Bumbyride Dreamlands 39. This Pike tends to be overlooked, especially when taking into account the magnitude of Pike 65. Buckethead all, Official, Tabs, Pro, Power, Bass Tabs, Ukulele Chords tabs including big sur moon, all in the waiting, animal behaviour, asylum of glass, binge and grab Pike 65. Download Buckethead mp3. 1 Riff 1/Part N Starts =160 9 11 11 9 11 13 9 11 4 4 2 11 9 11 13 7 9 8 P. His music spans genres, including progressive metal, funk, blues, bluegrass, ambient, and avant-garde music. 00 shipping. Amazing pike one of my favorite rip Nancy carrol. Download Torrent: Buckethead - Current Studio Disco + Extras. heaviness: 8,0. Pike 65的吉他谱(gtp谱,总谱)在线查看,下载及讨论. MP3 is a digital audio format without digital rights management (DRM) technology. Then times it by 100. Buckethead Interview - Coming Alive Podcast (2017) Buckethead - One of the best, most emotional versions of Soothsayer Live @ Gothic 9-28-2012. Sessantaduesimo disco appartenente alla serie "Buckethead Pikes", si tratta del prequel di Citacis, pubblicato otto giorni prima. Copy #!sr Buckethead - Poseidon Part 5. Every Side. This Pike tends to be overlooked, especially when taking into account the magnitude of Pike 65. Buckethead is one of the most bizarre and enigmatic figures in American underground and experimental music since Parliament-Funkadelic birthed their bevy of cosmic characters in the mid-'70s. 0 % Test CRC B940FB89 Copy CRC B940FB89 Copy OK Track 3 Filename F:\Buckethead - The Day Of The Robot [1996 - FLAC]\03 - Quantum Crash. Unique Buckethead designs on hard and soft cases and covers for iPhone 12, SE, 11, iPhone XS, iPhone X, iPhone 8, & more. Buckethead Pike 49. Hold Me Forever (In memory of my mom Nancy York Carroll) - Full Album1. atmosphere: 8,0. Genres: Experimental Rock, Progressive Rock, Progressive Metal. Скачать видео Guns N' Roses with Buckethead - Welcome To The Jungle на пк и телефон в хорошем качестве. Who Are They Mourning?13,377. Flat Metal Coupons - Weld Metals Online. The Backing Tracks are lossless. Buckethead Tour Dates for all the upcoming concerts officially announced so far. His solo work alone comprises over 65 albums, and he has over 100 others with various bands and lurker appearances. Pike 65 - A call for help. Pike 65 – Hold me forever (in memory of my mom Nancy York Carroll) (June 25, 2014) OVERALL. Filename K:\Buckethead - 018 LE (2013) FLAC\07 - Buckethead - Track07. Shipped with USPS Media Mail. RARE Music !. Hold me forerer ……Pike 65Nancy York Carroll for ever. Click Here for Pikes 101 to 200. Unique Buckethead designs on hard and soft cases and covers for iPhone 12, SE, 11, iPhone XS, iPhone X, iPhone 8, & more. heaviness: 8,0. Learn "Pike 65" faster with Songsterr Plus plan! Buckethead - Distortion Guitar Track difficulty (Rhythm) 100% ? d# A# F# C# G# D# P. Buckethead Pike 65 - Hold Me Forever (In memory of my mom Nancy York Carroll) Zoran Lozanoski, 27/06/2014 Buckethead - 09. Tuning: Eb Ab Db Gb Bb Eb. Buckethead Pike 65 - Hold Me Forever (In memory of my mom Nancy York Carroll). 17 + AU $26. Pikes Series\2011 - Pike 01 - It's Alive\05. Vinyl LP Picture Disc Guitars by Buckethead And Composed By George. Get the Buckethead Setlist of the concert at The Vogue, Indianapolis, IN, USA on April 27, 2018 from the 2018 North American Tour and other Buckethead Setlists for free on setlist. 【电吉他】翻弹及教学 Buckethead Pike 65 - Er (by Wil) defaultlinn. Effective October 1, 2020 to September 30, 2021. wav Peak level 78. Find the best version for your choice. Discover more music, concerts, videos, and pictures with the largest catalogue online at Last. Pike 77 - Bumbyride Dreamlands 39. I'll try to upload re-mixes of the old tracks (V1, V2, etc. Discount: -20%; Release date: 2014; Duration: 29:51; Size, Mb: 70. Click here to return to main page. That's Buckethead right there. From United States. Pike 144 - Scream Sundae 36. 20 shipping. Buckethead has one of the biggest discographies in music. Buckethead Pike 65 - Hold Me Forever (In memory of my mom Nancy York Carroll) Buckethead - Lurker At The Threshold (Parts I-IV) Buckethead-Final Wars. Hey, at least this isn't 4chan. Pike 159 - Half Circle Bridge 41. ‎'A Hurler's Life' is a podcast hosted by Brian Carroll - each episode chats with a former great of the game about their hurling lives!. Click here for Pikes 200-249. Encontre Buckethead no MercadoLivre. I went to the mirror. 00 shipping. Gutiar Pro Tab "Pike 65 (2)" from Buckethead band is free to download. Buckethead Interview - Coming Alive Podcast (2017) Buckethead - One of the best, most emotional versions of Soothsayer Live @ Gothic 9-28-2012. Musiche di Buckethead. As mentioned numerous times before ‘Hold me Forever’ is one of the greatest compositions Buckethead has ever done and one of the greatest guitar pieces ever recorded. Check out Buckethead on Amazon Music. aeboyles It clearly. Buy & Download Cheap Mp3 Music Online. An accomplished multi-instrumentalist best known for his virtuosic command of the electric guitar, Buckethead is one of the instrument's most recognizable contemporary innovators, his rapid-fire riffing. Buckethead Hold Me Forever (In memory of my mom) Pike 65: 2: Buckethead Buckethead Pikes #43 Pike 43: 3: Buckethead Leave The Light On Pike 66: 4: Buckethead Pitch Dark Pike 50: 5: Buckethead Monument Valley Pike 49: 6: Buckethead Claymation Courtyard Pike 51: 7: Buckethead Listen for the Whisper Pike 90: 8: Buckethead Footsteps Pike 60: 9. Buckethead é um músico norte americano essencialmente um guitarrista. Michael Jackson Tribute. Le 27 juin 2013, le 18 e volume de la série Buckethead Pikes est offert en ligne [65]. 29 previous price £20. He received critical acclaim for his innovative electric guitar playing. mp3 by Steve from desktop or your mobile device. Snap, tough, & flex cases created by independent artists. Discount: -20%; Pike 249 - The Moss. This program is available to downloading on our site. He has released 304 studio albums, four special releases and one EP. Buckethead - Pike 16 - The Boiling Pond. Filename F:\Buckethead - The Day Of The Robot [1996 - FLAC]\02 - Flying Guillotine. lazerwar9190 Buckethead has done it again. See which songs from which albums Buckethead played through the years. RARE Music !. Group Clicking: USA - No Outlines19,318. Le 27 juin 2013, le 18 e volume de la série Buckethead Pikes est offert en ligne [65]. Pike 193 - 14 Days til Halloween: Voice from the Dead Forest 43. Buckethead Pike 65 - Hold Me Forever (In memory of my mom Nancy York Carroll) Buckethead - Lurker At The Threshold (Parts I-IV) Buckethead-Final Wars. NOTICE TO ALL EMPLOYEES PROVlDING COVERED SERVICES FOR MIAMI-DADE COUNTY ON COUNTY. But Buckethead packs a lot of emotion into this one, so grab your tissue box and dig in. Pike 65 - Hold Me Forever (In Memory of My Mom Nancy York Carroll) 38. Buckethead discography and songs: Music profile for Buckethead, born 13 May 1969. BUCKETHEAD - THE SHORES OF MOLOKAI - BUCKETHEADLAND PIKE 7 (Cardboard Sleeve still has plastic on it). Buckethead is an American musician, predominantly a guitarist. bUcKeThEaD Vinyl Record 5-13/10-31. Citacis 63 - 2:23; Citacis 64 - 2:37; Citacis 65 - 3:08; Citacis 66 - 3:10; Citacis 67 - 3:12. Seller 100% positive. Buckethead Pikes Collection 01: Description: Buckethead Brian Patrick Carroll (born May 13, 1969), better known by his stage name Buckethead, is a guitarist and multi instrumentalist who has worked within several genres of music. Here's some outrageous Buckethead tapping. Buckethead's 3 Foot Clearance is a Happy Holiday. Materializing the Disembodied. Buckethead今年48岁了。 当然除了这些外星系的音外,也有很多正常优美的旋律,比如非常有名的PIke 65,Gost, soothsayer,the. er 14:58*Released on June 25, 2014Buy. doddy's board "buckethead" on Pinterest. The following is a discography of works by Buckethead, which currently consists of 306 studio albums (including 275 in the Pike Series), 1 live album, 4 special releases, 1 extended play, 5 demo tapes, 3 solo DVD video releases, 2 DVD video releases with Cornbugs, 3 music videos, 3 unreleased albums, 3 solo videography releases. Click here for Pikes 200-249. atmosphere: 8,0. Seventh installment of BUCKETHEAD's PIKE series in the year 2020. er 14:58*Released on June 25, 2014Buy. Pike 65 - Hold Me Forever (In Memory Of My Mom Nancy York Carroll) is a alternative metal music album recording by BUCKETHEAD released in 2014 on CD, LP/Vinyl and/or cassette. Bucketheadland 10 31 Download includes music video. 00 + AU $20. Buckethead - Pike 11 (2013) 1 Untitled 5:00 2 Untitled 3:44 3 Untitled 8:49 4 Untitled 1:44 5 Untitled 6:10 6 Untitled 4:30 7 Untitled 1:29 Limited edition CDr hand drawn and numbered by Buckethead. Tablature file Buckethead - Pike 65 opens by means of the Guitar PRO program. doddy's board "buckethead" on Pinterest. Bucketheadland 10 31 by Bucketheadland, released 30 October 2018 1. This plethora of material can often be intimidating for an uninitiated Bucketbot to sort through. Buy & Download Cheap Mp3 Music Online. Pike 249 - The Moss Lands Buy album $1. Entire Pikes discography available for $198. My top Pikes would probably have to be Look Up There ( Pike 5), Claymation Courtyard ( Pike 51), Hold Me Forever (In memory of my mom Nancy York Carroll) ( Pike 65), Leave the Light On ( Pike 66), Northern Lights ( Pike 95), Project Little Man ( Pike 104), Shaded Ray ( Pike 121), Buildor ( Pike 224), and Bozo. Mai 1969 in Huntington Beach). Buckethead Pike 65 - Hold Me Forever (In memory of my mom Nancy York Carroll) Buckethead - Soothsayer Buckethead - One of the best, most emotional versions of Soothsayer Live Gothic 9 - 28 - 2012. Diese Diskografie besteht aus allen Werken von Buckethead, einem US-amerikanischen Musiker der hauptsächlich als Gitarrist tätig ist. Discount: -20%; Release date: 2014; Duration: 29:51; Size, Mb: 70. Musiche di Buckethead. Pike 65 - Hold Me Forever (In memory of my mom Nancy York Carroll) Close. 65 USD or 3. Michael Jackson Tribute. 8 % Track quality 100. Many regard that album as Buckethead's best Pike, and rightfully so, as that album truly is wonderful in every sense of the word. Buckethead - Pike 65 Tab. Pike 71 - Celery is a hard rock music album recording by BUCKETHEAD released in 2014 on CD, LP/Vinyl and/or cassette. Sono da aggiungere inoltre cinque album in studio e una raccolta pubblicati attraverso il nome d'arte Death. Get the Buckethead Setlist of the concert at The Vogue, Indianapolis, IN, USA on April 27, 2018 from the 2018 North American Tour and other Buckethead Setlists for free on setlist. Pike 144 - Scream Sundae 36. Buckethead tabs, chords, guitar, bass, ukulele chords, power tabs and guitar pro tabs including all in the waiting, animal behaviour, asylum of glass, a real diamond in the rough, aunt suzie. Author periah [a] 154. As much as I dig Buckethead's Pike 51 - Claymation Courtyard, I find Pike 65 - Hold Me Forever (In Memory Of My Mom Nancy York Carroll) tops it by a longshot. 12:55 - ev6. Response to Buckethead Appreciation Apr 22, 2021. Amazing tone, riff, and solo. Buckethead Pike 65 - Hold Me Forever (In memory of my mom Nancy York Carroll) Buckethead playing with nunchucks and doing the robot on stage Buckethead Interview - Coming Alive Podcast (2017). Buy Mp3 Music Online / Buckethead / Pike 249 - The Moss Lands. Pike 65 – Hold me forever (in memory of my mom Nancy York Carroll) (June 25, 2014) OVERALL. atmosphere: 8,0. Seller 100% positive. Pike 65 - Hold Me Forever, for example, is named in honor of his late mother and has a driving and forceful rhythm with heavy effects. Buy & Download Cheap Mp3 Music Online. Mar 3, 2019 - Explore St. Buckethead - Electric Sea [New CD] £12. [Full Album] Buckethead - Flesh for the Beast [2003] - Original Soundtrack. Слушать онлайн Pike 65 - Hold Me Forever (In memory of my mom Nancy York Carroll) - Buckethead. The divine buckethead, cannot thank you enough. Oh yeah, Sigil's great. 2011 Pike 1 It's Alive ——- Pike 65 Hold Me Forever (In memory of my mom Nancy York Carroll) 10/10 ——- Pike 66 Leave the Light On 9/10. This page includes BUCKETHEAD Pike 71 - Celery's : cover picture, songs / tracks list, members/musicians and line-up, different releases details, buy online: ebay and amazon, ratings and detailled reviews by some experts, collaborators and members. 1547 播放 · 2 弹幕 【伴奏】Buckethead's Pike 65—'C' Backing Track Produced by Wil. Pike 65 - A call for help. I would rank it next to pike 65, if that helps show. 0 % Test CRC D402C5D0 Copy CRC D402C5D0 Copy OK. In my opinion, this is the weakest of those three by a massive margin. 65 USD or 3. Amazing pike one of my favorite rip Nancy carrol. As mentioned numerous times before 'Hold me Forever' is one of the greatest compositions Buckethead has ever done and one of the greatest guitar pieces ever recorded. Net: la mejor musica online gratis de Rock. My top Pikes would probably have to be Look Up There ( Pike 5), Claymation Courtyard ( Pike 51), Hold Me Forever (In memory of my mom Nancy York Carroll) ( Pike 65), Leave the Light On ( Pike 66), Northern Lights ( Pike 95), Project Little Man ( Pike 104), Shaded Ray ( Pike 121), Buildor ( Pike 224), and Bozo. Download original Guitar Pro tab. 0 % Test CRC D402C5D0 Copy CRC D402C5D0 Copy OK. atmosphere: 8,0. Genres: Experimental Rock, Progressive Rock, Progressive Metal. There is a steady set of drumming to accompany the strings unlike a lot of similar Pikes. [Full Album] Buckethead - Flesh for the Beast [2003] - Original Soundtrack. Limited to 300 copies. List of the best Buckethead albums, including pictures of the album covers when available. I would rank it next to pike 65, if that helps show. Buckethead Pike 65 - Hold Me Forever (In memory of my mom Nancy York Carroll) Buckethead - Soothsayer Buckethead - One of the best, most emotional versions of Soothsayer Live Gothic 9 - 28 - 2012. 07 shipping. Member Level 04 Musician. Condition is Brand New. Pike 154 - The Cellar. Buckethead - Pike 65 Tab. doddy's board "buckethead" on Pinterest. BUCKETHEAD released PIKE 13, in 2013. La discografía del guitarrista Buckethead cuenta con 273 álbumes de solista, 3 DVD, un lanzamiento especial de 13 álbumes. 3 9 11 11 9 11 13 9 11 4 11 9 11 13 12 14 14 P. Discover more music, concerts, videos, and pictures with the largest catalogue online at Last. Tuning: Eb Ab Db Gb Bb Eb. Here's some outrageous Buckethead tapping. Filename F:\Buckethead - The Day Of The Robot [1996 - FLAC]\02 - Flying Guillotine. I went to the mirror. Whether you're a seasoned pro or just starting out, Weld Metals Online has all the funs stuff you need without the boring stuff (like cutting and prepping metal). Buckethead Artist Overview Albums. Buckethead — Pike 62 - Outlined For Citacis. bUcKeThEaD Pike 241 Record Sparks In The Dark. Pike 32 is simple in structure, with three tracks consisting of calmly plucked acoustic licks and dreamy, melancholic leads. Seller 100% positive. The divine buckethead, cannot thank you enough. lazerwar9190 Buckethead has done it again. considered by many to be the best pike up to date, this is without any doubt a powerful composition of raw emotion. He has also performed on more than 50 other albums by other artists. Buckethead - Pike 65 Tab. Buckethead all, Official, Tabs, Pro, Power, Bass Tabs, Ukulele Chords tabs including big sur moon, all in the waiting, animal behaviour, asylum of glass, binge and grab Pike 65. 20 shipping. Consists of six tracks that clock in at 28:28. Get the Buckethead Setlist of the concert at The Vogue, Indianapolis, IN, USA on April 27, 2018 from the 2018 North American Tour and other Buckethead Setlists for free on setlist. 8 % Track quality 100. Click here for free digital download. atmosphere: 8,0. 77; Format: MP3, 320 kbps. Copy #!sr Buckethead - Plastination Station. Buy & Download Cheap Mp3 Music Online. Who Are They Mourning?13,377. Michael Jackson Tribute. Buy Buckethead Pike 13 Mp3 Download. Shipped with USPS Media Mail. He has also performed on more than 50 other albums by other artists. by Buckethead. Musiche di Buckethead. Il s'agit encore une fois d'une version limitée. There is a steady set of drumming to accompany the strings unlike a lot of similar Pikes. bUcKeThEaD Vinyl Record 5-13/10-31. 1 % Track quality 100. 20 shipping. Buckethead continued to release albums throughout the year, breaking the numerical order occasionally (for example, Pike 34 Pikes was released three weeks after Pike 35 Thank you Ohlinger's).